<svg xmlns="http://www.w3.org/2000/svg">
<metadata>Created by FontForge 20110222 at Tue Oct4 16:35:49 2011
Modified by fontgen.py at Tue Oct4 16:35:49 2011
</metadata>
<defs>
<font id="webfont" horiz-adv-x="519"><font-face units-per-em="1000" ascent="750" descent="-250"/>
<missing-glyph horiz-adv-x="500"/><glyph unicode=" " horiz-adv-x="250"/><glyph unicode="A" d="M150 0h-115s31 144 78 347c44 190 92 353 92 353h109s47 -163 91 -353c47 -203 79 -347 79 -347h-116s-10 51 -25 126h-168c-16 -75 -25 -126 -25 -126zM194 227h130c-34 185 -65 314 -65 314s-31 -129 -65 -314z"/><glyph unicode="C" horiz-adv-x="499" d="M45 357c0 199 110 347 230 347c68 0 146 -52 188 -160l-98 -51c-22 71 -54 101 -90 101c-56 0 -119 -97 -119 -236c0 -169 60 -256 121 -256c37 0 78 46 98 133l99 -59c-42 -114 -125 -179 -198 -179c-115 0 -231 124 -231 360z"/><glyph unicode="O" horiz-adv-x="558" d="M279 704c131 0 234 -158 234 -355c0 -199 -96 -352 -234 -352c-135 0 -234 154 -234 352c0 196 102 355 234 355zM402 347c0 136 -54 247 -123 247c-68 0 -123 -111 -123 -247c0 -133 52 -245 123 -245s123 111 123 245z"/><glyph unicode="I" horiz-adv-x="257" d="M182 700v-700h-107v700h107z"/><glyph unicode="U" horiz-adv-x="540" d="M470 700v-495c0 -119 -79 -208 -200 -208c-118 0 -200 89 -200 208v495h110v-500c0 -63 42 -102 90 -102c49 0 91 39 91 102v500h109z"/><glyph unicode="T" horiz-adv-x="436" d="M20 700h396v-105h-144v-595h-108v595h-144v105z"/><glyph unicode="N" horiz-adv-x="590" d="M505 700v-700h-99l-216 452v-452h-105v700h100l215 -461v461h105z"/><glyph unicode="E" horiz-adv-x="466" d="M75 700h344v-105h-238v-218h224v-106h-224v-166h238v-105h-344v700z"/><glyph unicode="F" horiz-adv-x="437" d="M75 700h327v-105h-220v-218h206v-106h-206v-271h-107v700z"/><glyph unicode="P" horiz-adv-x="495" d="M181 202v-202h-106v695c24 5 65 10 100 10c185 0 295 -109 295 -255c0 -138 -99 -247 -271 -248h-18zM362 455c0 70 -58 144 -160 144c-7 0 -13 0 -21 -2v-296h6c117 0 175 60 175 154z"/><glyph unicode="L" horiz-adv-x="405" d="M184 106h206v-106h-315v700h109v-594z"/><glyph unicode="Y" horiz-adv-x="530" d="M402 700h123l-205 -398v-302h-110v302l-205 398h123l137 -288z"/><glyph unicode="H" horiz-adv-x="566" d="M491 700v-700h-110v271h-196v-271h-110v700h110v-324h196v324h110z"/><glyph unicode="V" horiz-adv-x="520" d="M371 700h119l-165 -700h-131l-164 700h119l111 -570z"/><glyph unicode="Z" horiz-adv-x="461" d="M436 700l-251 -596h220v-104h-380l253 596h-223v104h381z"/><glyph unicode="Q" horiz-adv-x="558" d="M279 704c131 0 234 -158 234 -355c0 -172 -71 -309 -179 -344v-22c0 -36 24 -54 57 -54h44v-82c-18 -4 -38 -7 -65 -7c-84 0 -149 58 -149 149v18c-105 37 -176 173 -176 342c0 196 102 355 234 355zM402 347c0 136 -54 247 -123 247c-68 0 -123 -111 -123 -247 c0 -133 52 -245 123 -245s123 111 123 245z"/><glyph unicode="i" horiz-adv-x="257" d="M182 700v-700h-107v700h107z"/><glyph unicode="D" horiz-adv-x="532" d="M75 700h100c196 0 312 -119 312 -348s-111 -352 -290 -352h-122v700zM183 105h12c122 0 181 84 181 246c0 111 -36 244 -180 244h-13v-490z"/><glyph unicode="M" horiz-adv-x="646" d="M80 0v700h96l147 -348l147 348h96v-700h-103v429l-140 -314l-140 314v-429h-103z"/><glyph unicode="m" horiz-adv-x="646" d="M80 0v700h96l147 -348l147 348h96v-700h-103v429l-140 -314l-140 314v-429h-103z"/><glyph unicode="b" horiz-adv-x="529" d="M80 3v691c48 8 92 10 135 10c169 0 251 -83 251 -197c0 -59 -32 -114 -79 -146c57 -30 97 -93 97 -157c0 -121 -85 -209 -254 -209c-54 0 -108 2 -150 8zM186 602v-194c17 -2 38 -2 50 -2c82 0 124 40 124 100c0 53 -41 99 -128 99c-13 0 -32 -1 -46 -3zM186 306v-212 c11 -1 34 -1 44 -1c96 0 142 44 142 114c0 59 -49 103 -135 103c-19 0 -38 -2 -51 -4z"/><glyph unicode="-" horiz-adv-x="344" d="M45 271v106h254v-106h-254z"/><glyph unicode="o" horiz-adv-x="558" d="M279 704c131 0 234 -158 234 -355c0 -199 -96 -352 -234 -352c-135 0 -234 154 -234 352c0 196 102 355 234 355zM402 347c0 136 -54 247 -123 247c-68 0 -123 -111 -123 -247c0 -133 52 -245 123 -245s123 111 123 245z"/><glyph unicode="X" horiz-adv-x="514" d="M370 0l-117 257l-111 -257h-122l175 360l-171 340h120l112 -239l103 239h119l-162 -339l178 -361h-124z"/><glyph unicode="K" horiz-adv-x="538" d="M335 387l178 -387h-122l-124 287l-80 -139v-148h-107v700h107v-374l203 374h122z"/><glyph unicode="k" horiz-adv-x="538" d="M335 387l178 -387h-122l-124 287l-80 -139v-148h-107v700h107v-374l203 374h122z"/><glyph unicode="." horiz-adv-x="272" d="M197 126v-126h-122v126h122z"/><glyph unicode="," horiz-adv-x="269" d="M194 126l-35 -233h-84v233h119z"/><glyph unicode="g" horiz-adv-x="547" d="M287 377h212c2 -21 3 -43 3 -65c0 -223 -130 -315 -223 -315c-120 0 -234 128 -234 361c0 187 104 346 234 346c76 0 155 -57 192 -158l-96 -51c-28 79 -65 99 -96 99c-65 0 -123 -108 -123 -236c0 -177 67 -256 123 -256s113 71 114 173h-106v102z"/><glyph unicode="q" horiz-adv-x="558" d="M279 704c131 0 234 -158 234 -355c0 -172 -71 -309 -179 -344v-22c0 -36 24 -54 57 -54h44v-82c-18 -4 -38 -7 -65 -7c-84 0 -149 58 -149 149v18c-105 37 -176 173 -176 342c0 196 102 355 234 355zM402 347c0 136 -54 247 -123 247c-68 0 -123 -111 -123 -247 c0 -133 52 -245 123 -245s123 111 123 245z"/><glyph unicode="J" horiz-adv-x="381" d="M132 -3c-50 0 -92 17 -127 49l79 73c14 -14 30 -22 48 -22c41 0 75 37 75 100v503h109v-497c0 -129 -82 -206 -184 -206z"/><glyph unicode="p" horiz-adv-x="495" d="M181 202v-202h-106v695c24 5 65 10 100 10c185 0 295 -109 295 -255c0 -138 -99 -247 -271 -248h-18zM362 455c0 70 -58 144 -160 144c-7 0 -13 0 -21 -2v-296h6c117 0 175 60 175 154z"/><glyph unicode="w" horiz-adv-x="818" d="M662 700h121l-154 -700h-123l-98 481l-98 -481h-122l-153 700h121l95 -541l104 541h108l104 -541z"/><glyph unicode="s" horiz-adv-x="450" d="M402 620l-86 -69c-23 32 -49 50 -79 50c-41 0 -78 -29 -78 -74c0 -39 21 -67 94 -117c115 -80 157 -139 157 -227c0 -107 -91 -191 -195 -191c-71 0 -136 32 -185 94l90 76c25 -46 58 -66 94 -66c48 0 84 40 84 87c0 39 -27 77 -105 134c-104 74 -143 134 -143 207 c0 99 80 182 186 182c60 0 117 -25 166 -86z"/><glyph unicode="c" horiz-adv-x="499" d="M45 357c0 199 110 347 230 347c68 0 146 -52 188 -160l-98 -51c-22 71 -54 101 -90 101c-56 0 -119 -97 -119 -236c0 -169 60 -256 121 -256c37 0 78 46 98 133l99 -59c-42 -114 -125 -179 -198 -179c-115 0 -231 124 -231 360z"/><glyph unicode="d" horiz-adv-x="532" d="M75 700h100c196 0 312 -119 312 -348s-111 -352 -290 -352h-122v700zM183 105h12c122 0 181 84 181 246c0 111 -36 244 -180 244h-13v-490z"/><glyph unicode="j" horiz-adv-x="381" d="M132 -3c-50 0 -92 17 -127 49l79 73c14 -14 30 -22 48 -22c41 0 75 37 75 100v503h109v-497c0 -129 -82 -206 -184 -206z"/><glyph unicode="B" horiz-adv-x="529" d="M80 3v691c48 8 92 10 135 10c169 0 251 -83 251 -197c0 -59 -32 -114 -79 -146c57 -30 97 -93 97 -157c0 -121 -85 -209 -254 -209c-54 0 -108 2 -150 8zM186 602v-194c17 -2 38 -2 50 -2c82 0 124 40 124 100c0 53 -41 99 -128 99c-13 0 -32 -1 -46 -3zM186 306v-212 c11 -1 34 -1 44 -1c96 0 142 44 142 114c0 59 -49 103 -135 103c-19 0 -38 -2 -51 -4z"/><glyph unicode="G" horiz-adv-x="547" d="M287 377h212c2 -21 3 -43 3 -65c0 -223 -130 -315 -223 -315c-120 0 -234 128 -234 361c0 187 104 346 234 346c76 0 155 -57 192 -158l-96 -51c-28 79 -65 99 -96 99c-65 0 -123 -108 -123 -236c0 -177 67 -256 123 -256s113 71 114 173h-106v102z"/><glyph unicode="n" horiz-adv-x="590" d="M505 700v-700h-99l-216 452v-452h-105v700h100l215 -461v461h105z"/><glyph unicode="&#220;" horiz-adv-x="540" d="M470 700v-495c0 -119 -79 -208 -200 -208c-118 0 -200 89 -200 208v495h110v-500c0 -63 42 -102 90 -102c49 0 91 39 91 102v500h109zM232 863v-94h-114v94h114zM422 863v-94h-110v94h110z"/><glyph unicode="&#196;" d="M150 0h-115s31 144 78 347c44 190 92 353 92 353h109s47 -163 91 -353c47 -203 79 -347 79 -347h-116s-10 51 -25 126h-168c-16 -75 -25 -126 -25 -126zM194 227h130c-34 185 -65 314 -65 314s-31 -129 -65 -314zM219 860v-94h-114v94h114zM409 860v-94h-110v94h110z"/><glyph unicode="&#214;" horiz-adv-x="558" d="M279 704c131 0 234 -158 234 -355c0 -199 -96 -352 -234 -352c-135 0 -234 154 -234 352c0 196 102 355 234 355zM402 347c0 136 -54 247 -123 247c-68 0 -123 -111 -123 -247c0 -133 52 -245 123 -245s123 111 123 245zM241 857v-94h-114v94h114zM431 857v-94h-110v94 h110z"/><glyph unicode="a" d="M150 0h-115s31 144 78 347c44 190 92 353 92 353h109s47 -163 91 -353c47 -203 79 -347 79 -347h-116s-10 51 -25 126h-168c-16 -75 -25 -126 -25 -126zM194 227h130c-34 185 -65 314 -65 314s-31 -129 -65 -314z"/><glyph unicode="!" horiz-adv-x="309" d="M234 118v-118h-114v118h114zM231 700v-503h-107v503h107z"/><glyph unicode="e" horiz-adv-x="466" d="M75 700h344v-105h-238v-218h224v-106h-224v-166h238v-105h-344v700z"/><glyph unicode="f" horiz-adv-x="437" d="M75 700h327v-105h-220v-218h206v-106h-206v-271h-107v700z"/><glyph unicode="2" horiz-adv-x="482" d="M419 0h-394l179 272c96 146 107 189 107 236c0 55 -34 95 -82 95c-39 0 -73 -24 -94 -100l-99 59c50 101 109 145 197 145c113 0 189 -91 189 -189c0 -68 -26 -147 -101 -261c-33 -50 -71 -103 -104 -153h202v-104z"/><glyph unicode="t" horiz-adv-x="436" d="M20 700h396v-105h-144v-595h-108v595h-144v105z"/><glyph unicode="3" horiz-adv-x="496" d="M233 -9c-92 0 -165 54 -203 137c0 0 95 45 97 47c24 -48 59 -83 106 -83c55 0 106 51 106 125c0 81 -76 152 -209 152c-12 0 -24 -1 -36 -2l180 234h-191v96h378l-192 -256c115 -30 179 -118 179 -224c0 -128 -96 -226 -215 -226z"/><glyph unicode="4" horiz-adv-x="509" d="M30 142l160 558h109s-135 -470 -135 -461h140v253h107v-253h63v-97h-63v-142h-107v142h-274z"/><glyph unicode="5" horiz-adv-x="508" d="M417 697v-98h-202l-22 -148c14 5 29 7 45 7c134 0 225 -95 225 -240c0 -134 -100 -227 -216 -227c-92 0 -164 54 -202 137c0 0 95 45 97 47c24 -48 59 -83 106 -83c56 0 105 58 105 128c0 81 -59 138 -141 138c-46 0 -97 -17 -136 -40l50 379h291z"/><glyph unicode="7" horiz-adv-x="439" d="M413 697l-250 -697h-117l217 592h-229v105h379z"/><glyph unicode="0" horiz-adv-x="515" d="M257 705c137 0 216 -134 216 -356c0 -225 -77 -353 -216 -353c-135 0 -215 129 -215 353c0 220 79 356 215 356zM363 349c0 154 -40 251 -106 251c-64 0 -105 -97 -105 -251c0 -152 38 -250 105 -250c68 0 106 97 106 250z"/><glyph unicode="6" horiz-adv-x="527" d="M376 225c0 75 -48 126 -102 126c-55 0 -102 -43 -102 -126c0 -73 47 -129 102 -129c54 0 102 56 102 129zM466 615l-84 -72c-27 43 -60 62 -93 62c-62 0 -121 -86 -127 -217c27 41 80 69 131 69c107 0 189 -88 189 -228c0 -142 -93 -235 -208 -235 c-130 0 -219 110 -219 341c0 234 99 370 243 370c67 0 125 -32 168 -90z"/><glyph unicode="9" d="M142 477c0 -71 48 -124 102 -124s101 43 101 124c0 71 -47 127 -101 127s-102 -56 -102 -127zM48 81l84 77c25 -38 62 -61 95 -61c71 0 126 97 128 224c-27 -40 -78 -65 -128 -65c-104 0 -187 88 -187 221c0 136 96 230 206 230c130 0 218 -111 218 -336 c0 -229 -92 -377 -247 -377c-64 0 -122 30 -169 87z"/><glyph unicode="8" horiz-adv-x="520" d="M245 327h-1c-69 -48 -89 -89 -89 -137c0 -56 43 -103 103 -103c66 0 105 49 105 101c0 42 -29 89 -118 139zM171 377h1c-61 43 -97 94 -97 157c0 101 79 174 183 174c113 0 187 -77 187 -168c0 -60 -27 -111 -97 -160c95 -56 127 -119 127 -190 c0 -100 -85 -201 -219 -201c-118 0 -211 87 -211 203c0 78 51 151 126 185zM268 426h2c55 46 67 80 67 109c0 45 -34 74 -81 74c-43 0 -75 -29 -75 -75c0 -35 25 -68 87 -108z"/><glyph unicode="u" horiz-adv-x="540" d="M470 700v-495c0 -119 -79 -208 -200 -208c-118 0 -200 89 -200 208v495h110v-500c0 -63 42 -102 90 -102c49 0 91 39 91 102v500h109z"/><glyph unicode="1" horiz-adv-x="403" d="M371 99v-99h-302v99h99v485l-110 -25l-13 101l230 43v-604h96z"/><glyph unicode="x" horiz-adv-x="514" d="M370 0l-117 257l-111 -257h-122l175 360l-171 340h120l112 -239l103 239h119l-162 -339l178 -361h-124z"/><glyph unicode="W" horiz-adv-x="818" d="M662 700h121l-154 -700h-123l-98 481l-98 -481h-122l-153 700h121l95 -541l104 541h108l104 -541z"/><glyph unicode="l" horiz-adv-x="405" d="M184 106h206v-106h-315v700h109v-594z"/><glyph unicode="h" horiz-adv-x="566" d="M491 700v-700h-110v271h-196v-271h-110v700h110v-324h196v324h110z"/><glyph unicode="v" horiz-adv-x="520" d="M371 700h119l-165 -700h-131l-164 700h119l111 -570z"/><glyph unicode=":" horiz-adv-x="292" d="M207 126v-126h-122v126h122zM207 458v-126h-122v126h122z"/><glyph unicode=")" horiz-adv-x="306" d="M62 784l92 32c54 -121 92 -299 92 -432c0 -178 -31 -308 -91 -489l-95 27c51 160 76 317 76 461c0 145 -32 289 -74 401z"/><glyph unicode="(" horiz-adv-x="306" d="M152 816l92 -32c-42 -112 -74 -256 -74 -401c0 -144 25 -301 76 -461l-95 -27c-60 181 -91 311 -91 489c0 133 38 311 92 432z"/><glyph unicode="&amp;" horiz-adv-x="627" d="M313 271v100h309v-100h-123c5 -220 -128 -281 -217 -281c-143 0 -227 114 -227 242c0 116 41 171 111 234l-84 234h346v-96h-203l64 -176c-68 -35 -125 -88 -125 -193c0 -80 47 -144 115 -144c66 0 116 61 121 180h-87z"/><glyph unicode="&#8364;" horiz-adv-x="577" d="M45 382l13 65h72c27 152 122 257 223 257c68 0 146 -52 188 -160l-98 -51c-22 71 -54 101 -90 101c-43 0 -91 -58 -110 -147h176l-13 -65h-172v-24c0 -11 0 -21 1 -31h184l-13 -65h-165c18 -106 66 -160 114 -160c37 0 78 46 98 133l99 -59c-42 -114 -125 -179 -198 -179 c-99 0 -198 91 -224 265h-85l13 65h65v30v25h-78z"/><glyph unicode="+" horiz-adv-x="477" d="M290 129h-105v143h-140v101h140v143h105v-143h142v-101h-142v-143z"/><glyph unicode="%" horiz-adv-x="861" d="M647 700l-332 -700h-103l332 700h103zM200 705c95 0 158 -89 158 -200c0 -110 -59 -197 -158 -197c-95 0 -155 87 -155 197s63 200 155 200zM261 505c0 60 -21 113 -61 113c-36 0 -62 -53 -62 -113c0 -59 24 -112 62 -112c40 0 61 53 61 112zM658 394 c95 0 158 -89 158 -200c0 -110 -59 -197 -158 -197c-95 0 -155 87 -155 197s63 200 155 200zM719 194c0 60 -21 113 -61 113c-36 0 -62 -53 -62 -113c0 -59 24 -112 62 -112c40 0 61 53 61 112z"/><glyph unicode="&#8226;" horiz-adv-x="576" d="M288 110c-79 89 -160 170 -243 243c83 73 164 154 243 243c79 -89 160 -170 243 -243c-83 -73 -164 -154 -243 -243zM288 242c33 42 68 79 105 111c-37 32 -72 69 -105 111c-33 -42 -68 -79 -105 -111c37 -32 72 -69 105 -111z"/><glyph unicode="&#8230;" horiz-adv-x="850" d="M207 126v-126h-122v126h122zM491 126v-126h-122v126h122zM775 126v-126h-122v126h122z"/><glyph unicode="=" horiz-adv-x="568" d="M60 374v103h448v-103h-448zM60 167v103h448v-103h-448z"/><glyph unicode="?" horiz-adv-x="492" d="M184 197v151c111 10 176 68 176 146c0 63 -51 114 -107 114c-45 0 -85 -28 -119 -86c-1 1 -89 52 -89 52c47 92 122 135 208 135c118 0 214 -95 214 -213c0 -104 -66 -189 -176 -215v-84h-107zM294 0v118h-114v-118h114z"/><glyph unicode="z" horiz-adv-x="461" d="M436 700l-251 -596h220v-104h-380l253 596h-223v104h381z"/><glyph unicode="@" horiz-adv-x="953" d="M648 517v-209c0 -56 18 -76 44 -76c36 0 88 67 88 165c0 137 -122 247 -279 247c-158 0 -304 -137 -304 -315c0 -181 145 -301 306 -301c47 0 108 11 156 33l31 -84c-56 -28 -133 -41 -188 -41c-238 0 -412 160 -412 393c0 202 160 412 413 412c217 0 380 -148 380 -336 c0 -160 -105 -266 -194 -266c-47 0 -89 22 -108 62c-33 -41 -79 -60 -130 -60c-75 0 -148 63 -148 181c0 120 102 222 229 222c40 0 87 -12 116 -27zM542 322l1 124c-71 5 -130 -49 -130 -131c0 -61 24 -84 57 -84c39 0 72 38 72 91z"/><glyph unicode="y" horiz-adv-x="530" d="M402 700h123l-205 -398v-302h-110v302l-205 398h123l137 -288z"/><glyph unicode="$" horiz-adv-x="470" d="M210 -81v74c-65 7 -121 42 -160 93l90 76c25 -46 58 -66 94 -66c48 0 84 40 84 87c0 39 -27 77 -105 134c-104 74 -143 134 -143 207c0 90 66 164 150 179v89l69 -14v-74c49 -9 93 -35 133 -84l-86 -69c-23 32 -49 50 -79 50c-41 0 -78 -29 -78 -74c0 -39 21 -67 94 -117 c115 -80 157 -139 157 -227c0 -91 -66 -165 -151 -186v-92z"/><glyph unicode="|" horiz-adv-x="403" d="M253 769v-858h-103v858h103z"/><glyph unicode=";" horiz-adv-x="292" d="M205 126l-35 -233h-84v233h119zM207 458v-126h-122v126h122z"/><glyph unicode="&#8211;" horiz-adv-x="477" d="M45 271v106h387v-106h-387z"/><glyph unicode="&#8212;" horiz-adv-x="776" d="M45 271v106h686v-106h-686z"/><glyph unicode="*" horiz-adv-x="544" d="M227 809h90l-11 -146l135 56l28 -86l-141 -35l94 -110l-73 -54l-78 124l-75 -124l-74 54l94 110l-141 35l28 86l134 -55z"/><glyph unicode="/" horiz-adv-x="457" d="M417 769l-271 -858h-106l271 858h106z"/><glyph unicode="&gt;" horiz-adv-x="471" d="M272 350c-68 54 -154 121 -217 167l74 74c92 -68 215 -166 297 -241c-82 -75 -205 -173 -297 -241l-74 74c63 46 149 113 217 167z"/><glyph unicode="&lt;" horiz-adv-x="471" d="M199 350c68 -54 154 -121 217 -167l-74 -74c-92 68 -215 166 -297 241c82 75 205 173 297 241l74 -74c-63 -46 -149 -113 -217 -167z"/><glyph unicode="&#187;" horiz-adv-x="484" d="M339 351c-34 67 -59 115 -92 174l88 35c38 -72 71 -134 104 -209c-33 -75 -66 -137 -104 -210l-88 36c33 59 58 107 92 174zM137 351c-34 67 -59 115 -92 174l88 35c39 -72 71 -134 105 -209c-34 -75 -66 -137 -105 -210l-88 36c33 59 58 107 92 174z"/><glyph unicode="&#171;" horiz-adv-x="484" d="M145 351c34 -67 59 -115 92 -174l-88 -36c-38 73 -71 135 -104 210c33 75 66 137 104 209l88 -35c-33 -59 -58 -107 -92 -174zM347 351c34 -67 59 -115 92 -174l-88 -36c-39 73 -71 135 -105 210c34 75 66 137 105 209l88 -35c-33 -59 -58 -107 -92 -174z"/><glyph unicode="&#8221;" horiz-adv-x="410" d="M146 499h-76c6 44 9 87 9 126c0 42 -3 80 -9 107h111c4 -19 5 -37 5 -56c0 -57 -15 -116 -40 -177zM325 499h-76c6 44 9 87 9 126c0 42 -3 80 -9 107h111c4 -19 5 -37 5 -56c0 -57 -15 -116 -40 -177z"/><glyph unicode="&#8220;" horiz-adv-x="416" d="M265 732h76c-6 -44 -9 -87 -9 -126c0 -42 3 -80 9 -107h-111c-4 18 -6 37 -6 56c0 57 16 115 41 177zM86 732h76c-6 -44 -9 -87 -9 -126c0 -42 3 -80 9 -107h-111c-4 18 -6 37 -6 56c0 57 16 115 41 177z"/><glyph unicode="{" horiz-adv-x="347" d="M160 348c39 -26 71 -81 71 -149c0 -66 -18 -114 -18 -162c0 -38 19 -81 49 -109c0 0 -59 -59 -60 -58c-53 30 -97 86 -97 162c0 62 20 117 20 181c0 42 -36 104 -80 135c44 31 80 93 80 135c0 64 -20 119 -20 181c0 76 45 131 98 161c1 1 59 -57 59 -57 c-30 -28 -49 -71 -49 -109c0 -48 18 -96 18 -162c0 -68 -32 -123 -71 -149z"/><glyph unicode="}" horiz-adv-x="347" d="M187 348c-39 26 -71 81 -71 149c0 66 18 114 18 162c0 38 -19 81 -49 109c0 0 58 58 59 57c53 -30 98 -85 98 -161c0 -62 -20 -117 -20 -181c0 -42 36 -104 80 -135c-44 -31 -80 -93 -80 -135c0 -64 20 -119 20 -181c0 -76 -44 -132 -97 -162c-1 -1 -60 58 -60 58 c30 28 49 71 49 109c0 48 -18 96 -18 162c0 68 32 123 71 149z"/><glyph unicode="&#8217;" horiz-adv-x="231" d="M146 499h-76c6 44 9 87 9 126c0 42 -3 80 -9 107h111c4 -19 5 -37 5 -56c0 -57 -15 -116 -40 -177z"/><glyph unicode="&#8216;" horiz-adv-x="237" d="M86 732h76c-6 -44 -9 -87 -9 -126c0 -42 3 -80 9 -107h-111c-4 18 -6 37 -6 56c0 57 16 115 41 177z"/><glyph unicode="&#188;" horiz-adv-x="976" d="M636 749l-271 -858h-86l271 858h86zM586 95l111 389h86s-79 -279 -96 -310h92v149h85v-149h42v-79h-42v-95h-85v95h-193zM275 260h-91v390c-15 -4 -49 -12 -73 -15l-11 83l175 31v-489z"/><glyph unicode="&#219;" horiz-adv-x="540" d="M470 700v-495c0 -119 -79 -208 -200 -208c-118 0 -200 89 -200 208v495h110v-500c0 -63 42 -102 90 -102c49 0 91 39 91 102v500h109zM275 812c0 0 -43 -46 -44 -46h-113l157 158l157 -158h-113c-1 0 -44 46 -44 46z"/><glyph unicode="&#190;" horiz-adv-x="1054" d="M247 242c-64 0 -117 40 -147 102l70 32l9 2c16 -31 37 -55 68 -55c36 0 66 31 66 77c0 55 -44 100 -127 100c-20 0 -34 0 -44 -1l116 157h-123v77h273l-131 -174c72 -16 121 -75 121 -159c0 -90 -66 -158 -151 -158zM714 749l-271 -858h-86l271 858h86zM664 95l111 389 h86s-79 -279 -96 -310h92v149h85v-149h42v-79h-42v-95h-85v95h-193z"/><glyph unicode="&#189;" horiz-adv-x="967" d="M896 0h-288l133 195c60 88 69 119 69 153c0 35 -20 61 -48 61c-27 0 -46 -18 -63 -73l-75 47c36 73 79 105 138 105c80 0 135 -61 135 -139c0 -59 -20 -108 -88 -201l-44 -65h131v-83zM636 749l-271 -858h-86l271 858h86zM275 260h-91v390c-15 -4 -49 -12 -73 -15l-11 83 l175 31v-489z"/><glyph unicode="&#165;" horiz-adv-x="580" d="M89 374h132l-171 326h123l137 -288l137 288h123l-172 -326h147l-13 -65h-167v-54h180l-13 -65h-167v-190h-110v190h-179l13 65h166v54h-179z"/><glyph unicode="&#223;" horiz-adv-x="541" d="M176 502v-502h-106v499c0 128 76 207 185 207c116 0 190 -83 190 -179c0 -87 -69 -141 -69 -173c0 -46 125 -58 125 -190c0 -95 -86 -172 -201 -172c-28 0 -62 5 -77 9v107c19 -6 47 -14 77 -14c59 0 92 36 92 76c0 60 -129 75 -129 174c0 78 72 121 72 179 c0 47 -34 76 -82 76c-44 0 -77 -41 -77 -97z"/><glyph unicode="&#169;" horiz-adv-x="885" d="M95 349c0 197 156 356 347 356c193 0 348 -159 348 -356s-155 -355 -348 -355c-191 0 -347 158 -347 355zM166 349c0 -161 124 -289 276 -289c154 0 277 128 277 289s-123 290 -277 290c-152 0 -276 -129 -276 -290zM272 350c0 -103 80 -184 182 -184c60 0 123 35 157 99 l-79 46c-15 -43 -52 -62 -78 -62c-46 0 -89 37 -89 101c0 56 37 100 89 100c17 0 53 -10 70 -48l78 39c-28 47 -77 90 -148 90c-106 0 -182 -81 -182 -181z"/><glyph unicode="[" horiz-adv-x="346" d="M75 780h196v-89h-93v-682h93v-89h-196v860z"/><glyph unicode="]" horiz-adv-x="346" d="M75 780h196v-860h-196v89h93v682h-93v89z"/><glyph unicode="R" horiz-adv-x="517" d="M181 198v-198h-106v695c22 5 62 10 104 10c161 0 291 -93 291 -255c0 -81 -39 -160 -108 -205l110 -245h-122l-86 209c-25 -8 -53 -11 -83 -11zM363 455c0 70 -59 143 -161 143c-6 0 -15 0 -21 -1v-296h6c117 0 176 60 176 154z"/><glyph unicode="&#174;" horiz-adv-x="885" d="M95 349c0 197 156 356 347 356c193 0 348 -159 348 -356s-155 -355 -348 -355c-191 0 -347 158 -347 355zM166 349c0 -161 124 -289 276 -289c154 0 277 128 277 289s-123 290 -277 290c-152 0 -276 -129 -276 -290zM402 274v-98h-84v350c27 11 73 17 94 17 c124 0 189 -58 189 -133c0 -41 -23 -83 -58 -108l61 -126h-98l-41 100c-22 -4 -39 -4 -63 -2zM516 408c0 31 -29 56 -82 56c-8 0 -24 -1 -32 -3v-111s16 -2 34 -2c57 0 80 30 80 60z"/><glyph unicode="_" horiz-adv-x="477" d="M45 -132v106h387v-106h-387z"/><glyph unicode="&#167;" horiz-adv-x="481" d="M55 78l90 75c21 -36 60 -57 96 -57c39 0 73 21 73 49c0 34 -16 49 -92 77c-128 48 -163 96 -163 163c0 25 15 62 34 85c-22 24 -32 51 -32 84c1 84 77 152 183 152c62 0 118 -26 167 -88l-85 -65c-22 27 -54 48 -92 48c-39 0 -64 -24 -64 -48c0 -34 17 -53 93 -81 c128 -48 163 -96 163 -163c0 -26 -15 -61 -34 -84c21 -22 32 -48 32 -80c-1 -84 -75 -153 -190 -153c-54 0 -129 24 -179 86zM228 394c-23 8 -43 17 -62 26c-6 -7 -11 -17 -12 -29c0 -28 10 -58 103 -91c23 -8 43 -17 62 -26c5 7 11 17 12 29c0 28 -10 58 -103 91z"/><glyph unicode="&#162;" horiz-adv-x="419" d="M195 527v89l69 -14v-73c56 -10 96 -47 121 -88l-78 -39c-17 38 -53 48 -70 48c-52 0 -89 -44 -89 -100c0 -64 43 -101 89 -101c26 0 63 19 78 62l79 -46c-29 -55 -79 -88 -130 -97v-85l-69 14v73c-81 19 -140 91 -140 180c0 87 57 159 140 177z"/><glyph unicode="&#164;" horiz-adv-x="833"/><glyph unicode="~" horiz-adv-x="833"/><glyph unicode="&#199;" horiz-adv-x="499" d="M45 357c0 199 110 347 230 347c68 0 146 -52 188 -160l-98 -51c-22 71 -54 101 -90 101c-56 0 -119 -97 -119 -236c0 -169 60 -256 121 -256c37 0 78 46 98 133l99 -59c-36 -98 -102 -160 -166 -175v-44c42 -8 64 -38 64 -80c0 -54 -44 -92 -107 -92 c-41 0 -85 20 -112 51l39 55c20 -20 43 -30 65 -30c24 0 34 10 34 24c0 21 -23 30 -59 31v87c-99 28 -187 148 -187 354z"/><glyph unicode="&#201;" horiz-adv-x="466" d="M75 700h344v-105h-238v-218h224v-106h-224v-166h238v-105h-344v700zM264 928l103 -44l-100 -130h-91z"/><glyph unicode="&#206;" horiz-adv-x="257" d="M182 700v-700h-107v700h107zM128 812c0 0 -43 -46 -44 -46h-113l157 158l157 -158h-113c-1 0 -44 46 -44 46z"/><glyph unicode="&#200;" horiz-adv-x="466" d="M419 700h-344v-700h344v105h-238v166h224v106h-224v218h238v105zM138 884l103 44l88 -174h-91z"/><glyph unicode="&#209;" horiz-adv-x="590" d="M505 700v-700h-99l-216 452v-452h-105v700h100l215 -461v461h105zM156 764c-3 10 -4 20 -4 30c0 49 29 99 84 99c47 0 86 -38 119 -38c17 0 30 11 32 37h56c3 -10 4 -20 4 -30c0 -49 -29 -99 -84 -99c-47 0 -86 38 -119 38c-17 0 -30 -11 -32 -37h-56z"/><glyph unicode="&#194;" d="M150 0h-115s31 144 78 347c44 190 92 353 92 353h109s47 -163 91 -353c47 -203 79 -347 79 -347h-116s-10 51 -25 126h-168c-16 -75 -25 -126 -25 -126zM194 227h130c-34 185 -65 314 -65 314s-31 -129 -65 -314zM259 812c0 0 -43 -46 -44 -46h-113l157 158l157 -158 h-113c-1 0 -44 46 -44 46z"/><glyph unicode="&#212;" horiz-adv-x="558" d="M279 704c131 0 234 -158 234 -355c0 -199 -96 -352 -234 -352c-135 0 -234 154 -234 352c0 196 102 355 234 355zM402 347c0 136 -54 247 -123 247c-68 0 -123 -111 -123 -247c0 -133 52 -245 123 -245s123 111 123 245zM279 812c0 0 -43 -46 -44 -46h-113l157 158 l157 -158h-113c-1 0 -44 46 -44 46z"/><glyph unicode="&#732;" horiz-adv-x="608" d="M156 764c-3 10 -4 20 -4 30c0 49 29 99 84 99c47 0 86 -38 119 -38c17 0 30 11 32 37h56c3 -10 4 -20 4 -30c0 -49 -29 -99 -84 -99c-47 0 -86 38 -119 38c-17 0 -30 -11 -32 -37h-56z"/><glyph unicode="&#163;" horiz-adv-x="538" d="M98 329h69c-36 60 -60 121 -60 189c0 98 76 189 189 189c88 0 147 -44 197 -145l-99 -59c-21 76 -55 100 -94 100c-48 0 -82 -40 -82 -95c0 -52 20 -98 62 -170l5 -9h185l-13 -70h-145c2 -11 4 -24 4 -36c0 -47 -20 -86 -51 -119h205v-104h-380v104h15 c57 0 100 41 100 106c0 15 -2 31 -7 49h-113z"/><glyph unicode="`" horiz-adv-x="520" d="M138 884l103 44l88 -174h-91z"/><glyph unicode="\" horiz-adv-x="467" d="M316 -89l-271 858h106l271 -858h-106z"/><glyph unicode="^" horiz-adv-x="520" d="M259 812c0 0 -43 -46 -44 -46h-113l157 158l157 -158h-113c-1 0 -44 46 -44 46z"/><glyph unicode="&#710;" horiz-adv-x="530" d="M259 812c0 0 -43 -46 -44 -46h-113l157 158l157 -158h-113c-1 0 -44 46 -44 46z"/><glyph unicode="&#226;" d="M150 0h-115s31 144 78 347c44 190 92 353 92 353h109s47 -163 91 -353c47 -203 79 -347 79 -347h-116s-10 51 -25 126h-168c-16 -75 -25 -126 -25 -126zM194 227h130c-34 185 -65 314 -65 314s-31 -129 -65 -314zM259 812c0 0 -43 -46 -44 -46h-113l157 158l157 -158 h-113c-1 0 -44 46 -44 46z"/><glyph unicode="&#192;" d="M35 0h115s9 51 25 126h168c15 -75 25 -126 25 -126h116s-32 144 -79 347c-44 190 -91 353 -91 353h-109s-48 -163 -92 -353c-47 -203 -78 -347 -78 -347zM324 227h-130c34 185 65 314 65 314s31 -129 65 -314zM112 884l103 44l88 -174h-91z"/><glyph unicode="&#180;" horiz-adv-x="295" d="M142 928l103 -44l-100 -130h-91z"/><glyph unicode="&#8249;" horiz-adv-x="282" d="M145 351c34 -67 59 -115 92 -174l-88 -36c-38 73 -71 135 -104 210c33 75 66 137 104 209l88 -35c-33 -59 -58 -107 -92 -174z"/><glyph unicode="&#8250;" horiz-adv-x="282" d="M137 351c-34 67 -59 115 -92 174l88 35c38 -72 71 -134 104 -209c-33 -75 -66 -137 -104 -210l-88 36c33 59 58 107 92 174z"/><glyph unicode="&#8218;" horiz-adv-x="226" d="M121 -107h-76c6 44 9 87 9 126c0 42 -3 80 -9 107h111c4 -19 5 -37 5 -56c0 -57 -15 -116 -40 -177z"/><glyph unicode="&#8222;" horiz-adv-x="405" d="M121 -107h-76c6 44 9 87 9 126c0 42 -3 80 -9 107h111c4 -19 5 -37 5 -56c0 -57 -15 -116 -40 -177zM300 -107h-76c6 44 9 87 9 126c0 42 -3 80 -9 107h111c4 -19 5 -37 5 -56c0 -57 -15 -116 -40 -177z"/><glyph unicode="&#161;" horiz-adv-x="309" d="M234 700v-118h-114v118h114zM231 503v-503h-107v503h107z"/><glyph unicode="&#191;" horiz-adv-x="492" d="M184 504v-151c111 -10 176 -68 176 -146c0 -63 -51 -114 -107 -114c-45 0 -85 28 -119 86c-1 -1 -89 -52 -89 -52c47 -92 122 -135 208 -135c118 0 214 95 214 213c0 104 -66 189 -176 215v84h-107zM294 701v-118h-114v118h114z"/><glyph unicode="&#176;" horiz-adv-x="440" d="M75 547c0 88 72 160 160 160s160 -72 160 -160s-72 -160 -160 -160s-160 72 -160 160zM144 547c0 -50 41 -91 91 -91s89 41 89 91s-39 89 -89 89s-91 -39 -91 -89z"/><glyph unicode="&#210;" horiz-adv-x="558" d="M279 704c-132 0 -234 -159 -234 -355c0 -198 99 -352 234 -352c138 0 234 153 234 352c0 197 -103 355 -234 355zM402 347c0 -134 -52 -245 -123 -245s-123 112 -123 245c0 136 55 247 123 247c69 0 123 -111 123 -247zM138 884l103 44l88 -174h-91z"/><glyph unicode="&#168;" horiz-adv-x="565" d="M241 857v-94h-114v94h114zM431 857v-94h-110v94h110z"/><glyph unicode="&#185;" horiz-adv-x="310" d="M265 260h-91v390c-15 -4 -49 -12 -73 -15l-11 83l175 31v-489z"/><glyph unicode="&#178;" horiz-adv-x="404" d="M358 260h-288l133 195c60 88 69 119 69 153c0 35 -20 61 -48 61c-27 0 -46 -18 -63 -73l-75 47c36 73 79 105 138 105c80 0 135 -61 135 -139c0 -59 -20 -108 -88 -201l-44 -65h131v-83z"/><glyph unicode="&#179;" horiz-adv-x="433" d="M227 258c-64 0 -116 33 -147 99l78 37c16 -36 39 -55 69 -55c36 0 66 29 66 72c0 45 -44 89 -127 89c-20 0 -34 0 -44 -1l118 157h-125v77h273l-131 -174c77 -18 121 -75 121 -148c0 -85 -66 -153 -151 -153z"/><glyph unicode="&#184;" horiz-adv-x="532" d="M232 -84v98h76v-57c42 -8 64 -38 64 -80c0 -54 -44 -92 -107 -92c-41 0 -85 20 -112 51l39 55c20 -20 43 -30 65 -30c24 0 34 10 34 24c0 21 -23 30 -59 31z"/><glyph unicode="&#197;" d="M119 747c0 77 63 140 140 140s140 -63 140 -140c0 -50 -26 -93 -65 -118c17 -65 45 -169 71 -282c47 -203 79 -347 79 -347h-116s-10 51 -25 126h-168c-16 -75 -25 -126 -25 -126h-115s31 144 78 347c26 113 54 216 71 281c-39 25 -65 69 -65 119zM194 227h130 c-34 185 -65 314 -65 314s-31 -129 -65 -314zM190 747c0 -38 31 -69 69 -69s69 31 69 69s-31 69 -69 69s-69 -31 -69 -69z"/><glyph unicode="&#198;" horiz-adv-x="778" d="M141 0h-132c153 303 278 540 372 700h350v-105h-238v-218h224v-106h-224v-166h238v-105h-344v126h-189s-27 -59 -57 -126zM247 226h140v286c-52 -100 -107 -217 -140 -286z"/><glyph unicode="&#193;" d="M150 0h-115s31 144 78 347c44 190 92 353 92 353h109s47 -163 91 -353c47 -203 79 -347 79 -347h-116s-10 51 -25 126h-168c-16 -75 -25 -126 -25 -126zM194 227h130c-34 185 -65 314 -65 314s-31 -129 -65 -314zM311 928l103 -44l-100 -130h-91z"/><glyph unicode="&#195;" d="M35 0h115s9 51 25 126h168c15 -75 25 -126 25 -126h116s-32 144 -79 347c-44 190 -91 353 -91 353h-109s-48 -163 -92 -353c-47 -203 -78 -347 -78 -347zM324 227h-130c34 185 65 314 65 314s31 -129 65 -314zM112 764c-3 10 -4 20 -4 30c0 49 29 99 84 99 c47 0 86 -38 119 -38c17 0 30 11 32 37h56c3 -10 4 -20 4 -30c0 -49 -29 -99 -84 -99c-47 0 -86 38 -119 38c-17 0 -30 -11 -32 -37h-56z"/><glyph unicode="&#202;" horiz-adv-x="466" d="M75 700h344v-105h-238v-218h224v-106h-224v-166h238v-105h-344v700zM246 812c0 0 -43 -46 -44 -46h-113l157 158l157 -158h-113c-1 0 -44 46 -44 46z"/><glyph unicode="&#203;" horiz-adv-x="466" d="M75 700h344v-105h-238v-218h224v-106h-224v-166h238v-105h-344v700zM208 860v-94h-114v94h114zM398 860v-94h-110v94h110z"/><glyph unicode="&#204;" horiz-adv-x="257" d="M182 0v700h-107v-700h107zM-1 884l103 44l88 -174h-91z"/><glyph unicode="&#205;" horiz-adv-x="257" d="M182 700v-700h-107v700h107zM155 928l103 -44l-100 -130h-91z"/><glyph unicode="&#207;" horiz-adv-x="257" d="M182 700v-700h-107v700h107zM90 857v-94h-114v94h114zM280 857v-94h-110v94h110z"/><glyph unicode="&#211;" horiz-adv-x="558" d="M279 704c131 0 234 -158 234 -355c0 -199 -96 -352 -234 -352c-135 0 -234 154 -234 352c0 196 102 355 234 355zM402 347c0 136 -54 247 -123 247c-68 0 -123 -111 -123 -247c0 -133 52 -245 123 -245s123 111 123 245zM318 928l103 -44l-100 -130h-91z"/><glyph unicode="&#213;" horiz-adv-x="558" d="M279 704c-132 0 -234 -159 -234 -355c0 -198 99 -352 234 -352c138 0 234 153 234 352c0 197 -103 355 -234 355zM402 347c0 -134 -52 -245 -123 -245s-123 112 -123 245c0 136 55 247 123 247c69 0 123 -111 123 -247zM129 764c-3 10 -4 20 -4 30c0 49 29 99 84 99 c47 0 86 -38 119 -38c17 0 30 11 32 37h56c3 -10 4 -20 4 -30c0 -49 -29 -99 -84 -99c-47 0 -86 38 -119 38c-17 0 -30 -11 -32 -37h-56z"/><glyph unicode="&#217;" horiz-adv-x="540" d="M470 700v-495c0 -119 -79 -208 -200 -208c-118 0 -200 89 -200 208v495h110v-500c0 -63 42 -102 90 -102c49 0 91 39 91 102v500h109zM138 884l103 44l88 -174h-91z"/><glyph unicode="&#218;" horiz-adv-x="540" d="M470 700v-495c0 -119 -79 -208 -200 -208c-118 0 -200 89 -200 208v495h110v-500c0 -63 42 -102 90 -102c49 0 91 39 91 102v500h109zM301 928l103 -44l-100 -130h-91z"/><glyph unicode="&#221;" horiz-adv-x="530" d="M402 700h123l-205 -398v-302h-110v302l-205 398h123l137 -288zM307 928l103 -44l-100 -130h-91z"/><glyph unicode="&#376;" horiz-adv-x="530" d="M402 700h123l-205 -398v-302h-110v302l-205 398h123l137 -288zM226 857v-94h-114v94h114zM416 857v-94h-110v94h110z"/><glyph unicode="&#224;" d="M35 0h115s9 51 25 126h168c15 -75 25 -126 25 -126h116s-32 144 -79 347c-44 190 -91 353 -91 353h-109s-48 -163 -92 -353c-47 -203 -78 -347 -78 -347zM324 227h-130c34 185 65 314 65 314s31 -129 65 -314zM112 884l103 44l88 -174h-91z"/><glyph unicode="&#225;" d="M150 0h-115s31 144 78 347c44 190 92 353 92 353h109s47 -163 91 -353c47 -203 79 -347 79 -347h-116s-10 51 -25 126h-168c-16 -75 -25 -126 -25 -126zM194 227h130c-34 185 -65 314 -65 314s-31 -129 -65 -314zM311 928l103 -44l-100 -130h-91z"/><glyph unicode="&#227;" d="M35 0h115s9 51 25 126h168c15 -75 25 -126 25 -126h116s-32 144 -79 347c-44 190 -91 353 -91 353h-109s-48 -163 -92 -353c-47 -203 -78 -347 -78 -347zM324 227h-130c34 185 65 314 65 314s31 -129 65 -314zM112 764c-3 10 -4 20 -4 30c0 49 29 99 84 99 c47 0 86 -38 119 -38c17 0 30 11 32 37h56c3 -10 4 -20 4 -30c0 -49 -29 -99 -84 -99c-47 0 -86 38 -119 38c-17 0 -30 -11 -32 -37h-56z"/><glyph unicode="&#228;" d="M150 0h-115s31 144 78 347c44 190 92 353 92 353h109s47 -163 91 -353c47 -203 79 -347 79 -347h-116s-10 51 -25 126h-168c-16 -75 -25 -126 -25 -126zM194 227h130c-34 185 -65 314 -65 314s-31 -129 -65 -314zM219 860v-94h-114v94h114zM409 860v-94h-110v94h110z"/><glyph unicode="&#229;" d="M119 747c0 77 63 140 140 140s140 -63 140 -140c0 -50 -26 -93 -65 -118c17 -65 45 -169 71 -282c47 -203 79 -347 79 -347h-116s-10 51 -25 126h-168c-16 -75 -25 -126 -25 -126h-115s31 144 78 347c26 113 54 216 71 281c-39 25 -65 69 -65 119zM194 227h130 c-34 185 -65 314 -65 314s-31 -129 -65 -314zM190 747c0 -38 31 -69 69 -69s69 31 69 69s-31 69 -69 69s-69 -31 -69 -69z"/><glyph unicode="&#231;" horiz-adv-x="499" d="M45 357c0 199 110 347 230 347c68 0 146 -52 188 -160l-98 -51c-22 71 -54 101 -90 101c-56 0 -119 -97 -119 -236c0 -169 60 -256 121 -256c37 0 78 46 98 133l99 -59c-36 -98 -102 -160 -166 -175v-44c42 -8 64 -38 64 -80c0 -54 -44 -92 -107 -92 c-41 0 -85 20 -112 51l39 55c20 -20 43 -30 65 -30c24 0 34 10 34 24c0 21 -23 30 -59 31v87c-99 28 -187 148 -187 354z"/><glyph unicode="&#230;" horiz-adv-x="778" d="M141 0h-132c153 303 278 540 372 700h350v-105h-238v-218h224v-106h-224v-166h238v-105h-344v126h-189s-27 -59 -57 -126zM247 226h140v286c-52 -100 -107 -217 -140 -286z"/><glyph unicode="&#232;" horiz-adv-x="466" d="M419 700h-344v-700h344v105h-238v166h224v106h-224v218h238v105zM138 884l103 44l88 -174h-91z"/><glyph unicode="&#233;" horiz-adv-x="466" d="M75 700h344v-105h-238v-218h224v-106h-224v-166h238v-105h-344v700zM264 928l103 -44l-100 -130h-91z"/><glyph unicode="&#234;" horiz-adv-x="466" d="M75 700h344v-105h-238v-218h224v-106h-224v-166h238v-105h-344v700zM246 812c0 0 -43 -46 -44 -46h-113l157 158l157 -158h-113c-1 0 -44 46 -44 46z"/><glyph unicode="&#235;" horiz-adv-x="466" d="M75 700h344v-105h-238v-218h224v-106h-224v-166h238v-105h-344v700zM208 860v-94h-114v94h114zM398 860v-94h-110v94h110z"/><glyph unicode="&#236;" horiz-adv-x="257" d="M182 0v700h-107v-700h107zM-1 884l103 44l88 -174h-91z"/><glyph unicode="&#237;" horiz-adv-x="257" d="M182 700v-700h-107v700h107zM155 928l103 -44l-100 -130h-91z"/><glyph unicode="&#238;" horiz-adv-x="257" d="M182 700v-700h-107v700h107zM128 812c0 0 -43 -46 -44 -46h-113l157 158l157 -158h-113c-1 0 -44 46 -44 46z"/><glyph unicode="&#239;" horiz-adv-x="257" d="M182 700v-700h-107v700h107zM90 857v-94h-114v94h114zM280 857v-94h-110v94h110z"/><glyph unicode="&#241;" horiz-adv-x="590" d="M505 700v-700h-99l-216 452v-452h-105v700h100l215 -461v461h105zM156 764c-3 10 -4 20 -4 30c0 49 29 99 84 99c47 0 86 -38 119 -38c17 0 30 11 32 37h56c3 -10 4 -20 4 -30c0 -49 -29 -99 -84 -99c-47 0 -86 38 -119 38c-17 0 -30 -11 -32 -37h-56z"/><glyph unicode="&#242;" horiz-adv-x="558" d="M279 704c-132 0 -234 -159 -234 -355c0 -198 99 -352 234 -352c138 0 234 153 234 352c0 197 -103 355 -234 355zM402 347c0 -134 -52 -245 -123 -245s-123 112 -123 245c0 136 55 247 123 247c69 0 123 -111 123 -247zM138 884l103 44l88 -174h-91z"/><glyph unicode="&#243;" horiz-adv-x="558" d="M279 704c131 0 234 -158 234 -355c0 -199 -96 -352 -234 -352c-135 0 -234 154 -234 352c0 196 102 355 234 355zM402 347c0 136 -54 247 -123 247c-68 0 -123 -111 -123 -247c0 -133 52 -245 123 -245s123 111 123 245zM318 928l103 -44l-100 -130h-91z"/><glyph unicode="&#244;" horiz-adv-x="558" d="M279 704c131 0 234 -158 234 -355c0 -199 -96 -352 -234 -352c-135 0 -234 154 -234 352c0 196 102 355 234 355zM402 347c0 136 -54 247 -123 247c-68 0 -123 -111 -123 -247c0 -133 52 -245 123 -245s123 111 123 245zM279 812c0 0 -43 -46 -44 -46h-113l157 158 l157 -158h-113c-1 0 -44 46 -44 46z"/><glyph unicode="&#245;" horiz-adv-x="558" d="M279 704c-132 0 -234 -159 -234 -355c0 -198 99 -352 234 -352c138 0 234 153 234 352c0 197 -103 355 -234 355zM402 347c0 -134 -52 -245 -123 -245s-123 112 -123 245c0 136 55 247 123 247c69 0 123 -111 123 -247zM129 764c-3 10 -4 20 -4 30c0 49 29 99 84 99 c47 0 86 -38 119 -38c17 0 30 11 32 37h56c3 -10 4 -20 4 -30c0 -49 -29 -99 -84 -99c-47 0 -86 38 -119 38c-17 0 -30 -11 -32 -37h-56z"/><glyph unicode="&#246;" horiz-adv-x="558" d="M279 704c131 0 234 -158 234 -355c0 -199 -96 -352 -234 -352c-135 0 -234 154 -234 352c0 196 102 355 234 355zM402 347c0 136 -54 247 -123 247c-68 0 -123 -111 -123 -247c0 -133 52 -245 123 -245s123 111 123 245zM241 857v-94h-114v94h114zM431 857v-94h-110v94 h110z"/><glyph unicode="&#249;" horiz-adv-x="540" d="M470 700v-495c0 -119 -79 -208 -200 -208c-118 0 -200 89 -200 208v495h110v-500c0 -63 42 -102 90 -102c49 0 91 39 91 102v500h109zM138 884l103 44l88 -174h-91z"/><glyph unicode="&#250;" horiz-adv-x="540" d="M470 700v-495c0 -119 -79 -208 -200 -208c-118 0 -200 89 -200 208v495h110v-500c0 -63 42 -102 90 -102c49 0 91 39 91 102v500h109zM301 928l103 -44l-100 -130h-91z"/><glyph unicode="&#251;" horiz-adv-x="540" d="M470 700v-495c0 -119 -79 -208 -200 -208c-118 0 -200 89 -200 208v495h110v-500c0 -63 42 -102 90 -102c49 0 91 39 91 102v500h109zM275 812c0 0 -43 -46 -44 -46h-113l157 158l157 -158h-113c-1 0 -44 46 -44 46z"/><glyph unicode="&#252;" horiz-adv-x="540" d="M470 700v-495c0 -119 -79 -208 -200 -208c-118 0 -200 89 -200 208v495h110v-500c0 -63 42 -102 90 -102c49 0 91 39 91 102v500h109zM232 863v-94h-114v94h114zM422 863v-94h-110v94h110z"/><glyph unicode="&#253;" horiz-adv-x="530" d="M402 700h123l-205 -398v-302h-110v302l-205 398h123l137 -288zM307 928l103 -44l-100 -130h-91z"/><glyph unicode="&#255;" horiz-adv-x="530" d="M402 700h123l-205 -398v-302h-110v302l-205 398h123l137 -288zM226 857v-94h-114v94h114zM416 857v-94h-110v94h110z"/><glyph unicode="#" horiz-adv-x="662" d="M237 280l-16 -118h-96l16 118h-96v92h109l16 113h-103v92h116l18 124h96l-18 -124h117l18 124h96l-18 -124h95v-92h-108l-16 -113h102v-92h-115l-16 -118h-96l16 118h-117zM266 485l-16 -113h117l16 113h-117z"/><glyph unicode="S" horiz-adv-x="450" d="M402 620l-86 -69c-23 32 -49 50 -79 50c-41 0 -78 -29 -78 -74c0 -39 21 -67 94 -117c115 -80 157 -139 157 -227c0 -107 -91 -191 -195 -191c-71 0 -136 32 -185 94l90 76c25 -46 58 -66 94 -66c48 0 84 40 84 87c0 39 -27 77 -105 134c-104 74 -143 134 -143 207 c0 99 80 182 186 182c60 0 117 -25 166 -86z"/><glyph unicode="r" horiz-adv-x="517" d="M181 198v-198h-106v695c22 5 62 10 104 10c161 0 291 -93 291 -255c0 -81 -39 -160 -108 -205l110 -245h-122l-86 209c-25 -8 -53 -11 -83 -11zM363 455c0 70 -59 143 -161 143c-6 0 -15 0 -21 -1v-296h6c117 0 176 60 176 154z"/></font>
</defs>
</svg>
